Home » Files » MOVIES

Coco (2017) HD
[ Download from this server (82.8Kb) ] 02.02.2018, 00:27

4.11 GB

Coco Torrent Despite his family's baffling generations-old ban on music, Miguel dreams of becoming an accomplished musician like his idol, Ernesto de la Cruz. Desperate to prove his talent, Coco Torrent Miguel finds himself in the stunning and colorful Land of the Dead following a mysterious chain of events. Along the way, he meets charming trickster Hector, and together, Coco Torrent they set off on an extraordinary journey to unlock the real story behind Miguel's family history.

f1691de24a1160e7828116f31bccf66f.th.png f3100580e73b137eb7b9712dddb1891f.th.png

Mexican holidays are very pleasing to children, not behind it and a lover of all kinds of entertainment and children's games Miguel. Coco Torrent The child adores these noisy gatherings, neighborhood demonstrations, Coco Torrent just do not quite understand the meaning of the rituals that are traditionally performed on the day of sacred events. Coco Torrent Once a boy turns out to be an eyewitness to a delightful ritual that dedicates him to the mysterious world of the past. This divine blessing was not awarded to any member of a large family, and therefore the chosen one of fate follows the call of Coco Torrent the heart to find the root causes of amazing facts and then Coco Torrent tell them about them.

Coco Torrent The day of the dead was not at all what it seemed at the beginning. Before the young brave are opened tightly locked gates in another world. Coco Torrent Where are the unfamiliar roads leading? What do travelers want to tell? And why was he chosen as a guide between the world of the living and the dead? Miguel can not be called a coward, Coco Torrent but because in order to prove to himself that he is also worth something, an inquisitive teenager rushes to plunge into the mystical depths of a strange philosophy and to learn the history of his own family. Coco Torrent But will he be able to return from there by what he was before the holiday?

077a5d2375dcc9296ce8deeb36ee6e88.th.png 583dde11734fd0a34d84ba8ed8fe05ad.th.png

Video
ID                                       : 1
Format                                   : AVC
Format/Info                              : Advanced Video Codec
Format profile                           : [email protected]
Format settings                          : CABAC / 4 Ref Frames
Format settings, CABAC                   : Yes
Format settings, ReFrames                : 4 frames
Codec ID                                 : V_MPEG4/ISO/AVC
Duration                                 : 1 h 40 min
Bit rate                                 : 5 661 kb/s
Width                                    : 1 920 pixels
Height                                   : 800 pixels
Display aspect ratio                     : 2.40:1
Frame rate mode                          : Constant
Frame rate                               : 25.000 FPS
Color space                              : YUV
Chroma subsampling                       : 4:2:0
Bit depth                                : 8 bits
Scan type                                : Progressive
Bits/(Pixel*Frame)                       : 0.147
Stream size                              : 3.95 GiB (96%)
Title                                    : Coco.2017.1080p.WEBRip.x264.AAC2.0-SHITBOX
Writing library                          : x264 core 130 r2273 b3065e6
Encoding settings                        : cabac=1 / ref=1 / deblock=1:0:0 / analyse=0x3:0x113 / me=hex / subme=2 / psy=1 / psy_rd=1.00:0.00 / mixed_ref=0 / me_range=16 / chroma_me=1 / trellis=0 / 8x8dct=1 / cqm=0 / deadzone=21,11 / fast_pskip=1 / chroma_qp_offset=0 / threads=6 / lookahead_threads=2 / sliced_threads=0 / nr=0 / decimate=1 / interlaced=0 / bluray_compat=0 / constrained_intra=0 / bframes=3 / b_pyramid=2 / b_adapt=1 / b_bias=0 / direct=1 / weightb=1 / open_gop=0 / weightp=1 / keyint=250 / keyint_min=25 / scenecut=40 / intra_refresh=0 / rc_lookahead=10 / rc=abr / mbtree=1 / bitrate=5661 / ratetol=1.0 / qcomp=0.60 / qpmin=0 / qpmax=69 / qpstep=4 / vbv_maxrate=62500 / vbv_bufsize=78125 / nal_hrd=none / ip_ratio=1.40 / aq=1:1.00
Language                                 : English
Default                                  : Yes
Forced                                   : No
Color range                              : Limited
Color primaries                          : BT.709
Transfer characteristics                 : BT.709
Matrix coefficients                      : BT.709

Audio
ID                                       : 2
Format                                   : AAC
Format/Info                              : Advanced Audio Codec
Format profile                           : LC
Codec ID                                 : A_AAC-2
Duration                                 : 1 h 40 min
Bit rate                                 : 224 kb/s
Channel(s)                               : 2 channels
Channel positions                        : Front: L R
Sampling rate                            : 48.0 kHz
Frame rate                               : 46.875 FPS (1024 SPF)
Compression mode                         : Lossy
Stream size                              : 161 MiB (4%)
Title                                    : Coco.2017.1080p.WEBRip.x264.AAC2.0-SHITBOX
Language                                 : English
Default                                  : Yes
Forced                                   : No

Category: MOVIES | Added by: mikail | Tags: hd torrent, Coco Torrent, 2018 torrent movies, download torrent
Views: 910 | Downloads: 366
Total comments: 0
avatar
-->