Home » Files » MOVIES

Insidious: The Last Key (2018) HD
[ Download from this server (77.4Kb) ] 18.03.2018, 23:11

3.84 GB

Parapsychologist Insidious: The Last Key Torrent Dr. Elise Rainier faces her most fearsome and personal haunting yet - in her own family home.

8a03a9fe85612e61b76376a6ee4d593e.th.png 64816e7180f09a22476e29237811636b.th.png

Insidious: The Last Key Torrent is a continuation of a series of pictures about meeting with the world of spirits. Insidious: The Last Key Torrent Now Alice Rainer not only solves another's problem, but also struggles with the demons of her past.

As a child, the main character discovered the talent to see what others can not. The first time the girls talked to the ghosts were harmless, but still did not like her father Gerald. He beat his daughter every time she assured herself that she had seen the spirit of the deceased. Mother Aubrey tried to intercede, but could not fully resist her husband.

One day, Mr. Rainer punishes Alice by closing in the basement. There she communicates a certain essence, asking for help: you just need to open all the doors. The heroine naively agrees to render a simple service. Insidious: The Last Key Torrent This ends in tragedy: going down to the basement, Gerald finds his wife dead and her daughter unconscious.

Insidious: The Last Key Torrent It takes many years, and Alice, who is already old, who is professionally fighting ghosts, calls a certain Ted Garza. It turns out that he settled in the house of the family Rainer and lost his peace. We have to return to Alice and meet evil face to face ...

Video
ID                                       : 1
Format                                   : AVC
Format/Info                              : Advanced Video Codec
Format profile                           : [email protected]
Format settings                          : CABAC / 4 Ref Frames
Format settings, CABAC                   : Yes
Format settings, ReFrames                : 4 frames
Codec ID                                 : V_MPEG4/ISO/AVC
Duration                                 : 1 h 43 min
Bit rate                                 : 5 061 kb/s
Width                                    : 1 920 pixels
Height                                   : 800 pixels
Display aspect ratio                     : 2.40:1
Frame rate mode                          : Constant
Frame rate                               : 29.970 (30000/1001) FPS
Color space                              : YUV
Chroma subsampling                       : 4:2:0
Bit depth                                : 8 bits
Scan type                                : Progressive
Bits/(Pixel*Frame)                       : 0.110
Stream size                              : 3.68 GiB (96%)
Title                                    : Insidious.The.Last.Key.2018.1080p.KORSUB.HDRip.x264.AAC2.0-STUTTERSHIT
Writing library                          : x264 core 142 r2479 dd79a61
Encoding settings                        : cabac=1 / ref=1 / deblock=1:0:0 / analyse=0x3:0x113 / me=hex / subme=2 / psy=1 / psy_rd=1.00:0.00 / mixed_ref=0 / me_range=16 / chroma_me=1 / trellis=0 / 8x8dct=1 / cqm=0 / deadzone=21,11 / fast_pskip=1 / chroma_qp_offset=0 / threads=12 / lookahead_threads=4 / sliced_threads=0 / nr=0 / decimate=1 / interlaced=0 / bluray_compat=0 / constrained_intra=0 / bframes=3 / b_pyramid=2 / b_adapt=1 / b_bias=0 / direct=1 / weightb=1 / open_gop=0 / weightp=1 / keyint=300 / keyint_min=30 / scenecut=40 / intra_refresh=0 / rc_lookahead=10 / rc=abr / mbtree=1 / bitrate=5061 / ratetol=1.0 / qcomp=0.60 / qpmin=0 / qpmax=69 / qpstep=4 / vbv_maxrate=62500 / vbv_bufsize=78125 / nal_hrd=none / filler=0 / ip_ratio=1.40 / aq=1:1.00
Language                                 : English
Default                                  : Yes
Forced                                   : No
Color range                              : Limited
Color primaries                          : BT.709
Transfer characteristics                 : BT.709
Matrix coefficients                      : BT.709

Audio
ID                                       : 2
Format                                   : AAC
Format/Info                              : Advanced Audio Codec
Format profile                           : LC
Codec ID                                 : A_AAC-2
Duration                                 : 1 h 43 min
Bit rate                                 : 224 kb/s
Channel(s)                               : 2 channels
Channel positions                        : Front: L R
Sampling rate                            : 48.0 kHz
Frame rate                               : 46.875 FPS (1024 SPF)
Compression mode                         : Lossy
Delay relative to video                  : -5 ms
Stream size                              : 166 MiB (4%)
Title                                    : Insidious.The.Last.Key.2018.1080p.KORSUB.HDRip.x264.AAC2.0-STUTTERSHIT
Language                                 : English
Default                                  : Yes
Forced                                   : No

 

Category: MOVIES | Added by: mikail | Tags: Insidious: The Last Key 2018, 2018 movies torrents, Insidious: The Last Key Torrent
Views: 651 | Downloads: 175
Total comments: 0
avatar
-->